Touch Chesi Chudu 2018 Full UNCUT Movie Free Download Dubbed In Hindi + Telugu 720p HDRip Quality Encoded In x264 With English Subtitles.

Touch Chesi Chudu (Power Unlimited 2) Full Movie Free Download Dual Audio 720p HDRip - Hindi + Telugu

Details Of Full Length Free Videos

Title: Touch Chesi Chudu In Hindi
Genres: Action
Country: India
Language: Hindi | Telugu
Release Date: 2 February 2018
Quality: 720p HDRip x264
Subtitle: English
Format: MKV
Size: 1.5-GB

IMDb

Storyline

Touch Chesi Chudu Or Power Unlimited 2 Full Movie Hindi Dubbed + Tamil 720p HDRip Movie Download Direct Links A peaceful man completely devoted to his family finds his violent past resurfacing.

Touch Chesi Chudu (Translation: Touch and see what happens) is a 2018 Indian Telugu-language action comedy film written by Vakkantham Vamsi and directed by Vikram Sirikonda in his directorial debut in Telugu cinema.

It features Ravi Teja, Raashi Khanna and Seerat Kapoor in the lead roles while Freddy Daruwala plays the main antogonist which marks his debut in Telugu cinema.

Pre-production of the film began in July 2016 and Principal photography commenced in February 2017 in Hyderabad. The film released worldwide on 2 February 2018 Touch Chesi Chudu Dubbed In Hindi As Power Unlimited 2.

Cast

  • Ravi Teja as ACP Karthikeya / Karthik
  • Raashi Khanna as Pushpa
  • Seerat Kapoor as Divya
  • Freddy Daruwala as Irfan Lala
  • Murali Sharma as Commissioner of Police
  • Satyam Rajesh
  • Jayaprakash as Karthikeya’s father
  • Vennela Kishore as Circle Inspector J.Balram
  • Suhasini Maniratnam as Kartikeya’s teacher and Shalini’s mother
  • Vineet Kumar as Home Minister
  • Sayaji Shinde
  • Pooja Jhaveri as Sandhya
  • Vijaya Kumar
  • Annapurna
  • Shahbaaz Khan as Rauf lala
  • Ananth
  • Sriranjani
  • Anitha Nath
  • Vajja Venkata Giridhar
  • Sandhya Janak
  • Kaumudi Nemani as Shalini
  • Ajay
  • Jeeva as Maulana

MKV File Details

MKV File Details

General
Format : Matroska
Format version : Version 4
File size : 1.49 GiB
Duration : 2 h 21 min
Overall bit rate : 1 504 kb/s

Video
ID : 1 – Touch Chesi Chudu Movie Free Download
Format : AVC
Format/Info : Advanced Video Codec
Format profile : [email protected]
Format settings : CABAC / 4 Ref Frames
Format settings, CABAC : Yes
Format settings, ReFrames : 4 frames
Codec ID : V_MPEG4/ISO/AVC
Duration : 2 h 21 min
Bit rate : 1 278 kb/s
Width : 1 280 pixels
Height : 536 pixels
Display aspect ratio : 2.40:1
Frame rate mode : Constant
Frame rate : 23.976 (23976/1000) FPS
Color space : YUV
Chroma subsampling : 4:2:0
Bit depth : 8 bits
Default : Yes
Forced : No

Audio #1
ID : 2
Format : AC-3
Format/Info : Audio Coding 3
Commercial name : Dolby Digital
Codec ID : A_AC3
Duration : 2 h 21 min
Bit rate mode : Constant
Bit rate : 160 kb/s
Channel(s) : 2 channels
Channel layout : L R
Sampling rate : 44.1 kHz
Frame rate : 28.711 FPS (1536 SPF)
Bit depth : 16 bits
Compression mode : Lossy
Delay relative to video : 77 ms
Stream size : 162 MiB (11%)
Language : Hindi
Service kind : Complete Main
Default : Yes
Forced : Yes

Audio #2 – Touch Chesi Chudu South Hindi Dubbed Movie Download
ID : 3
Format : MPEG Audio
Format version : Version 1
Format profile : Layer 3
Format settings : Joint stereo / MS Stereo
Codec ID : A_MPEG/L3
Codec ID/Hint : MP3
Duration : 2 h 21 min
Bit rate mode : Constant
Bit rate : 64.0 kb/s
Channel(s) : 2 channels
Sampling rate : 44.1 kHz
Frame rate : 38.281 FPS (1152 SPF)
Compression mode : Lossy
Stream size : 64.8 MiB (4%)
Writing library : LAME3.98
Language : Telugu
Default : No
Forced : No

Text #1 – Touch Chesi Chudu (2018) English Subtitles Download
ID : 4
Format : UTF-8
Codec ID : S_TEXT/UTF8
Codec ID/Info : UTF-8 Plain Text
Duration : 2 h 18 min
Bit rate : 74 b/s
Count of elements : 2276
Stream size : 75.4 KiB (0%)
Language : English
Default : Yes
Forced : No

Text #2
ID : 5
Format : ASS
Codec ID : S_TEXT/ASS
Codec ID/Info : Advanced Sub Station Alpha
Bit rate : 0 b/s
Count of elements : 0
Compression mode : Lossless
Stream size : 0.00 Byte (0%)
Default : No
Forced : No

Images, Screenshots Of Full Episodes

Some Images Of Power Unlimited 2 (Touch Chesi Chudu) 2018 720p HDRip Hindi + Telugu Movie

Touch Chesi Chudu (Power Unlimited 2) Full Movie Free Download Dual Audio 720p HDRip - Hindi + Telugu

Touch Chesi Chudu (Power Unlimited 2) Full Movie Free Download Dual Audio 720p HDRip - Hindi + Telugu

Touch Chesi Chudu (Power Unlimited 2) Full Movie Free Download Dual Audio 720p HDRip - Hindi + Telugu

Touch Chesi Chudu (Power Unlimited 2) Full Movie Free Download Dual Audio 720p HDRip - Hindi + Telugu

Touch Chesi Chudu (Power Unlimited 2) Full Movie Free Download Dual Audio 720p HDRip - Hindi + Telugu

Touch Chesi Chudu (Power Unlimited 2) Full Movie Free Download Dual Audio 720p HDRip - Hindi + Telugu

Touch Chesi Chudu (Power Unlimited 2) Full Movie Free Download Dual Audio 720p HDRip - Hindi + Telugu

Touch Chesi Chudu (Power Unlimited 2) Full Movie Free Download Dual Audio 720p HDRip - Hindi + Telugu

Touch Chesi Chudu (Power Unlimited 2) Full Movie Free Download Dual Audio 720p HDRip - Hindi + Telugu

Touch Chesi Chudu (Power Unlimited 2) Full Movie Free Download Dual Audio 720p HDRip - Hindi + Telugu

Watch The Full HD 720p, 1080p Movie Trailers

Watch Touch Chesi Chudu (Power Unlimited 2) Full Movie Trailer

Direct Download Links Of Touch Chesi Chudu Full Movie In Hindi + Telugu 720p HD Given Below

Free Download Direct Links HD

Direct Links For Premium Users

If you are the member of this site then enter your login details and Enjoy Direct Links

Leave a Reply

Your email address will not be published. Required fields are marked *

Check Also

Spider-Man: Into the Spider-Verse (2018) New 720p HDCAM-Rip x264 [Hindi + Tamil + Telugu + English] – 900 MB

Spider-Man: Into the Spider-Verse Full Movie Download In Hindi + English + Tamil + Telugu …